#TITLE:Heaven;
#SUBTITLE:YamiRyou simfile;
#ARTIST:Big Bang;
#TITLETRANSLIT:;
#SUBTITLETRANSLIT:;
#ARTISTTRANSLIT:;
#CREDIT:YamiRyou;
#BANNER:banner.png;
#BACKGROUND:bg.png;
#LYRICSPATH:;
#CDTITLE:Yami.png;
#MUSIC:Heaven.mp3;
#OFFSET:0.000;
#SAMPLESTART:100.000;
#SAMPLELENGTH:12.000;
#SELECTABLE:YES;
#BPMS:0.000=128.000,0.500=64.000,10.000=96.000,22.000=128.000,213.500=256.000,214.500=48.000,226.500=128.000,288.000=48.000,288.750=64.000,289.000=128.000,352.500=256.000,353.500=48.000,365.500=128.000,429.000=256.000,430.000=64.000,432.250=128.000;
#STOPS:;
#BGCHANGES:;
// cache tags:
#FIRSTBEAT:0.500;
#LASTBEAT:432.250;
#SONGFILENAME:Songs/Super Dancer Online/Heaven/Heaven.sm;
#HASMUSIC:1;
#HASBANNER:1;
#MUSICLENGTH:232.991;
// end cache tags

//---------------dance-single - YamiRyou simfile----------------
#NOTES:
     dance-single:
     YamiRyou simfile:
     Hard:
     15:
     0.960,1.000,1.000,0.262,0.549,993.000,416.000,61.000,0.000,143.000:
0000
0002
0010
0010
2113
0000
0000
3120
,
1002
2133
0002
3020
2133
0000
0000
0000
,
0000
3201
2001
0001
3312
0000
0000
0010
,
0000
0000
0000
0000
0000
0000
0000
0000
2013
0000
0000
0000
0000
0000
0000
0000
0000
0000
0000
0000
3012
0000
0000
0000
0000
0000
0010
0000
0000
0010
0000
0000
,
2013
0000
0000
0000
0000
0000
0000
0000
0000
0000
0000
0000
0000
0000
0000
0000
0000
0000
0000
0000
0000
0000
0000
0000
3012
0000
0000
0000
0000
0000
0000
0000
0000
0000
0000
0000
0000
0000
0000
0000
0000
0000
0010
0000
0000
0000
0000
0000
0013
0000
0000
0000
0000
0000
0010
0000
0000
0100
0000
0000
1001
0000
0000
0000
,
0000
0010
0000
0000
1001
0000
0000
0000
0000
0000
1011
0000
0000
0000
0000
0000
1101
0000
0000
0000
0110
0000
0000
0000
0010
0000
0000
0000
1001
0000
0000
0000
,
0110
0100
1001
0010
0110
1001
0100
1001
,
0110
0010
1001
0100
0110
1001
0010
1001
,
0110
0100
1001
0110
0010
1001
0110
0100
,
0100
0010
0100
0010
0100
0010
1001
0000
0000
0110
0000
0000
1001
0000
0000
0110
0000
0000
0100
0000
0000
0110
0000
0000
,
1001
0010
1001
0100
1001
0110
0001
0110
,
1001
0100
1001
0010
1001
0110
0010
0110
,
1001
0010
1001
0110
0100
0110
1001
0010
,
1021
0000
1001
0000
1131
0001
0011
0001
,
1001
0001
0011
0001
1001
0001
0011
0001
,
1001
0001
1011
0000
1100
1000
1001
1000
,
1100
1000
1001
1000
1100
1000
1001
1000
,
1100
1000
1001
0000
0110
0010
1010
0010
,
0110
0010
1010
0010
0110
0010
1010
0010
,
0110
0010
1011
0000
0100
0000
0110
0000
,
1001
0110
0000
1010
0101
1200
0000
2001
,
0000
0000
3301
0000
1001
0000
1000
0000
1101
0000
1000
0000
1001
0000
1000
0100
,
0000
0000
1000
0000
1100
0010
1000
0100
1001
0000
1000
0000
1100
0000
1000
0100
,
0000
0000
1000
0000
1100
0010
1000
0100
1010
0000
1000
0000
1001
0100
1000
0100
,
0000
0000
1000
0000
1100
0000
1000
0100
1001
0000
1100
1000
0000
0100
1100
0000
,
1100
0000
1000
0100
1020
0000
0000
0000
1031
0000
1000
0100
1010
1000
0100
1000
,
1010
0100
1000
1000
1020
0000
0000
0000
1031
0000
1000
0000
1001
0000
1000
0000
,
1100
0000
1000
0000
1020
0000
0000
0000
1031
0000
1000
0000
1001
0100
1000
0100
,
1100
0000
1000
0000
1001
0000
1000
0100
1100
0000
1000
1000
1001
1000
1000
0000
,
1100
0100
1000
0000
1100
0000
0000
0000
1101
0000
0001
0000
0011
0000
0001
0010
,
0000
0000
0001
0000
1001
0000
0001
0000
0011
0000
0001
0000
0011
0010
0001
0001
,
0000
0000
0001
0000
0011
0000
0001
0000
0101
0010
0001
0001
1001
0000
0001
0001
,
0000
0001
0101
0001
0011
0001
1001
0201
,
0000
0000
0001
0000
1301
0000
0000
0000
1010
0000
1000
0100
1001
0000
1000
1000
,
1010
0000
1100
0100
1001
0000
1100
1000
0000
0000
1000
0000
1001
0000
1100
0100
,
1010
1000
0100
1000
1100
0000
1100
1000
0000
0000
1000
0000
1001
0000
0000
0000
,
1010
0000
1100
0100
0000
1000
1100
0000
1001
0000
0000
0000
1012
0100
1000
1000
,
1110
0000
0100
1000
1110
0000
0100
0000
1113
0000
0010
0000
0101
0000
0010
0000
,
1001
0010
0101
0010
1001
0100
1001
0100
,
1010
0010
0101
0100
1100
0010
0011
0100
,
1001
0010
0101
0100
1010
0010
1001
0100
,
1010
0010
1001
0110
1002
0100
1100
0100
,
1010
0100
1010
0010
0113
0100
1010
0010
,
1001
0100
0101
0010
1001
0100
1010
0010
,
1001
0100
0110
0100
1010
0100
0110
0100
,
1010
0100
0110
0001
1011
0001
0111
0001
,
1101
0001
0111
0001
1011
0001
0111
1000
,
0101
0010
0111
1000
1110
1000
1101
1000
,
1110
1000
1101
1000
1110
1000
1101
1000
,
1110
0100
1110
0100
1102
1000
1110
1000
,
1010
1000
1110
1000
1103
0100
1110
0100
,
1011
0100
0100
1102
0000
0000
0000
2113
,
0000
0000
0000
3021
0001
0100
0001
0100
,
0001
0000
0000
0000
0000
0000
0000
0000
0000
0000
0000
0000
2031
0000
0000
0000
0000
0000
0000
0000
0000
0000
0000
0000
0000
0000
0000
0000
0000
0000
0000
0000
0000
0000
0000
0000
0000
0000
0000
0000
3112
0000
0000
0010
0000
0000
0100
0000
0000
0010
0000
0000
0100
0000
0000
0000
0000
0000
0000
0000
0000
0000
0000
0000
,
1203
0000
0000
0010
0000
0000
1000
0000
0000
0010
0000
0000
1302
0000
0000
0010
0000
0000
0100
0000
0000
0010
0000
0000
2103
0000
0000
0010
0000
0000
0100
0000
0000
0010
0000
0000
0100
0000
0000
0010
0000
0000
0100
0000
0000
0010
0000
0000
0100
0000
0000
0010
0000
0000
0100
0000
0000
0010
0000
0000
3201
0000
0000
1000
,
0000
0000
0001
0000
0000
1000
0000
0000
0312
0000
0000
1000
0000
0000
0010
0000
0000
1000
0000
0000
0010
0000
0000
1000
0000
0000
0010
0000
0000
0100
0000
0000
2013
0000
0000
0100
0000
0000
0010
0000
0000
0001
0000
0000
3120
0000
0000
0001
0000
0000
0100
0000
0000
0001
0000
0000
1230
0000
0000
0001
0000
0000
1000
0000
,
0000
0001
0000
0000
1000
0000
0000
0001
0000
0000
1000
0000
0000
0010
0000
0000
2301
0000
0000
0010
0000
0000
0001
0000
0000
0010
0000
0000
0002
0000
0000
0000
0000
0000
0000
0000
0000
3113
0000
0000
1101
0000
0000
0000
0000
0000
0000
0000
0110
0000
0000
0000
0010
0000
0000
0000
0000
0000
0000
0000
0100
0000
0000
0000
,
0110
0000
1001
0000
0000
0000
0110
0000
0100
0000
1010
0000
0110
0010
0000
0000
,
0010
0000
0110
0000
0000
0000
1010
0000
0100
0000
0110
0000
0110
0100
0000
0000
,
0010
0000
1100
0000
0010
0000
0101
0000
0010
0000
1100
0000
1001
0001
0000
1000
,
1001
0000
1001
0000
0000
0000
1001
0000
0010
0000
1001
0000
0001
1000
0000
0000
,
0010
0000
1001
0000
0010
0000
1001
0000
0100
0000
1001
0000
1000
0001
0000
0000
,
1000
1002
0000
0000
1003
1100
1000
1100
,
1000
1100
1000
1100
2000
0000
3001
0011
,
0002
0000
1103
0000
0010
1011
0000
1100
,
1010
0000
1011
1000
1000
1000
1011
1000
1000
1000
1011
0000
1000
1000
0000
1000
,
1000
1002
0000
1103
0100
0110
0000
1001
,
0101
0000
1101
0001
0001
0001
1101
0001
0001
0001
1101
0000
0001
0001
0000
0000
,
0001
0000
2001
0000
0000
0000
0200
0000
0000
0000
3311
0000
1100
0011
0000
0000
,
1000
0000
1010
0000
1000
0000
1001
0000
1000
0000
1010
0000
1000
0100
0000
0000
,
1000
1001
2000
0000
0010
3110
0110
0110
,
0110
0000
0110
0000
0110
0000
0110
1001
0100
0000
1001
0000
0010
0000
1001
0000
,
0220
0000
0000
0000
1330
0001
1000
0001
1000
0001
1000
0001
1000
0001
1000
0001
,
1000
0100
0010
0001
1010
0000
0001
0000
1001
0000
0010
0100
1001
0000
1000
0000
,
1001
0000
0100
0000
1010
0000
0001
0000
0101
0000
0100
0010
1001
0000
1000
0000
,
1010
0000
0100
0000
1010
0000
0101
0000
1100
0000
0100
0010
1001
0000
0010
0100
,
1001
0000
0100
0000
0012
1000
0010
1000
0010
1000
0010
1000
0010
1000
0010
1000
,
0010
0100
1000
0100
1013
0000
0010
0000
0011
0000
1000
0100
1010
0000
0100
0000
,
1100
0000
0100
0000
0110
0000
0010
0000
0011
0000
0001
0010
0101
0000
0001
0000
,
0011
0000
0001
0000
1010
0000
0001
0000
1110
0000
0001
0010
1110
0000
1000
0100
,
0111
0000
1000
0000
1101
0000
0100
0000
1101
0000
0001
0010
1001
0000
0010
0000
,
1011
0000
0100
0000
0011
0000
0010
0000
1101
0000
1000
0100
1001
0000
0100
0000
,
1011
0000
1000
0000
0011
0000
0100
0000
1110
0000
0001
0010
1100
0000
0100
0000
,
0111
0000
0010
0000
1010
0000
0010
0000
1110
0000
1000
0100
1101
0000
0001
0010
,
1011
0000
0010
0000
2001
0100
0001
0100
0001
0100
0001
0100
0001
0100
0001
0100
,
0001
0010
0100
0010
3101
0000
0001
0000
1110
0000
0010
1000
0101
0000
1000
0000
,
0111
0000
1000
0000
0101
0000
0001
0000
1110
0000
0100
0001
1010
0000
1000
0000
,
0111
0000
2100
0000
0000
0000
3010
0000
0000
0000
0010
0000
0110
0000
0100
1000
,
1101
0000
0000
0000
0000
0000
0000
0000
0000
0000
0000
0000
0000
0000
0000
0000
0000
0000
0000
0000
0000
0000
0000
0000
2100
0000
0000
0100
0000
0000
0010
0000
0000
0100
0000
0000
0010
0000
0000
0100
0000
0000
0010
0000
0000
3102
0000
0000
0000
0000
0000
2103
0000
0000
0000
0000
0000
0000
0000
0000
0000
0000
0000
3001
,
0000
0000
0100
0000
0000
0001
0000
0000
0100
0000
0000
0001
0000
0000
0100
0000
0000
0001
0000
0000
0100
0000
0000
0001
0000
0000
0100
0000
0000
0001
0000
0000
0010
0000
0000
0100
0000
0000
0010
0000
0000
0100
0000
0000
0020
0000
0000
0000
0000
0000
2130
0000
0000
0000
0000
0000
0000
0000
0000
0000
0000
0000
0000
0000
,
0000
3100
0000
0000
0010
0000
0000
0000
0000
0000
0100
0000
0000
0102
0000
0000
0000
0000
0000
0000
0000
0000
0000
0000
0000
0103
0000
0000
0100
0000
0000
0010
0000
0000
0000
0000
0000
0210
0000
0000
0000
0000
0000
0000
0000
0000
0000
0000
0000
0310
0000
0000
0001
0000
0000
0010
0000
0000
0100
0000
0000
1000
0000
0000
,
0110
0000
0000
0000
0000
0000
0000
0000
0000
0001
0000
0000
0000
0000
0000
0000
0000
0000
0110
0000
0000
0000
0000
0000
0000
0000
0000
1000
0000
0000
0000
0000
0000
0000
0000
0000
0110
0000
0000
0000
0000
0000
0000
0000
0000
0000
0000
0000
0000
0000
0000
0000
0110
0000
0000
0000
0000
0000
0000
0000
0000
0000
0000
1001
0000
0000
0000
0000
0000
0000
0000
0000
0110
0000
0000
0000
0000
0000
0000
0000
0000
0000
0000
0000
0001
0000
0000
0000
0000
0000
0000
0000
0000
0000
0000
0000
0010
0000
0000
0000
0000
0000
0000
0000
0000
0000
0000
0000
0100
0000
0000
0000
0000
0000
0000
0000
0000
0000
0000
0000
1010
0000
0000
0000
0000
0000
0000
0000
0000
0000
0000
0000
0001
0000
0000
0000
0000
0000
0000
0000
0000
0000
0000
0000
0010
0000
0000
0000
0000
0000
0000
0000
0000
0000
0000
0000
0100
0000
0000
0000
0000
0000
0000
0000
0000
0000
0000
0000
1010
0000
0000
0000
0000
0000
0000
0000
0000
0000
0000
0000
0001
0000
0000
0000
0000
0000
0000
0000
0000
0000
0000
0000
,
0010
0100
1010
0001
0010
0010
1001
0000
0100
0000
1001
0000
0001
0010
1010
0000
,
0010
0000
1001
0000
0100
0000
1010
0000
0100
0000
1001
0000
0100
0010
1010
0000
,
0010
0000
1001
0000
0100
0000
1100
0000
0010
0000
0011
0000
0001
0001
0011
0000
,
1000
1000
1100
0000
0010
0000
0110
1000
0100
0010
0101
1000
0100
0010
0101
1000
,
0100
0010
0101
1000
0100
0010
1001
0000
0001
0000
1100
0000
0010
0001
0101
0000
,
1000
0000
0011
0000
0010
0000
0101
0000
1000
0000
1100
0000
0100
1000
1010
0000
,
0001
0000
0011
0000
0100
0000
1010
0000
0100
0010
0110
0000
0100
0100
1011
0000
,
0010
0000
1101
0000
0010
0000
1011
0000
1000
1000
1110
0000
0100
0000
1110
0000
,
0001
0001
0111
0000
0010
0000
0111
0000
1000
1000
1101
0000
0100
0000
1101
0000
,
0001
0001
1011
0000
0010
0000
1011
0000
0100
0100
1101
0000
0010
0000
0111
0000
,
0010
0010
1011
0000
0100
0000
1110
0000
0001
0001
1101
0000
0010
0000
1011
0000
,
0100
0000
1101
0000
0100
0000
1101
0010
0100
1000
0101
0010
0100
1000
0101
0010
,
0100
1000
0101
0010
0100
0010
1101
0000
1000
0100
0111
0000
0100
0000
0010
0000
,
0001
0010
1110
0000
0010
0000
0100
0000
0100
1000
1101
0000
0100
0000
0010
0000
,
0010
0001
1011
0000
0010
0000
0110
0000
1011
0000
1101
0000
1011
0000
1101
0000
,
1011
0000
1101
0000
1011
0000
0000
0000
2211
0000
3311
0000
0011
1100
0000
0100
,
0010
0100
0000
0000
0000
0000
0000
0000
0000
0000
0000
0000
0000
0000
0000
0000
;
